logo

Live Production Software Forums


Welcome Guest! To enable all features please Login or Register.

Notification

Icon
Error

Options
Go to last post Go to first unread
Falcon91  
#1 Posted : Thursday, June 16, 2022 11:17:16 PM(UTC)
Falcon91

Rank: Newbie

Groups: Registered
Joined: 6/16/2022(UTC)
Posts: 1
Canada
Location: OTTAWA


Hello folks, this is my first time streaming with Vmix and am getting this error while trying to stream to Youtube and facebook live, your help is needed,Thanks

FFMPEG1.Exited
Streaming
Stream #0:1: Audio: pcm_s16le, 48000 Hz, 2 channels, s16, 1536 kb/s
rtmp://a.rtmp.youtube.com/live2/359e-a8wy-rr83-57j3-7fbq1: Input/output error

configuration: --enable-gpl --enable-version3 --enable-libx264 --enable-zlib --enable-libfaac --enable-nonfree --cpu=i686 --enable-nvenc
libavutil 55. 2.100 / 55. 2.100
libavcodec 57. 3.100 / 57. 3.100
libavformat 57. 2.100 / 57. 2.100
libavdevice 57. 0.100 / 57. 0.100
libavfilter 6. 9.100 / 6. 9.100
libswscale 4. 0.100 / 4. 0.100
libswresample 2. 0.100 / 2. 0.100
libpostproc 54. 0.100 / 54. 0.100
Guessed Channel Layout for Input Stream #0.1 : stereo
Input #0, dshow, from 'video=vMix Video YV12:audio=vMix Audio':
Duration: N/A, start: 6803.709000, bitrate: 1536 kb/s
Stream #0:0: Video: rawvideo (YV12 / 0x32315659), yuv420p, 1280x720, 50 tbr, 10000k tbn, 50 tbc
Stream #0:1: Audio: pcm_s16le, 48000 Hz, 2 channels, s16, 1536 kb/s
[tcp @ 04d3ad20] TCP Buffer has been set to 13140992 bytes
[dshow @ 02329320] real-time buffer [vMix Video YV12] [video input] too full or near too full (62% of size: 128000000 [rtbufsize parameter])! frame dropped!
[dshow @ 02329320] real-time buffer [vMix Video YV12] [video input] too full or near too full (65% of size: 128000000 [rtbufsize parameter])! frame dropped!
[dshow @ 02329320] real-time buffer [vMix Video YV12] [video input] too full or near too full (66% of size: 128000000 [rtbufsize parameter])! frame dropped!
[dshow @ 02329320] real-time buffer [vMix Video YV12] [video input] too full or near too full (68% of size: 128000000 [rtbufsize parameter])! frame dropped!
rtmp://a.rtmp.youtube.com/live2/359e-a8wy-rr83-57j3-7fbq1: Input/output error
IceStream  
#2 Posted : Friday, June 17, 2022 8:07:48 PM(UTC)
IceStream

Rank: Advanced Member

Groups: Registered
Joined: 3/7/2012(UTC)
Posts: 2,465
Man
Location: Canada

Thanks: 32 times
Was thanked: 468 time(s) in 440 post(s)
@ Falcon91

Getting an Input/Output error at the start of a stream attempt is usually an indication that the streaming provider is either not getting your feed due to something on your system or network blocking it (antivirus software for example) or the streaming provider is rejecting your stream feed for some reason (commonly invalid credentials or permissions).



Ice
Users browsing this topic
Forum Jump  
You cannot post new topics in this forum.
You cannot reply to topics in this forum.
You cannot delete your posts in this forum.
You cannot edit your posts in this forum.
You cannot create polls in this forum.
You cannot vote in polls in this forum.