logo

Live Production Software Forums


Welcome Guest! To enable all features please Login or Register.

Notification

Icon
Error

Options
Go to last post Go to first unread
gazreyn  
#1 Posted : Wednesday, April 29, 2015 3:16:32 PM(UTC)
gazreyn

Rank: Advanced Member

Groups: Registered
Joined: 4/18/2014(UTC)
Posts: 55
Location: Birmingham, United Kingdom

Was thanked: 9 time(s) in 6 post(s)
Basically my stream keeps dropping with the following message in logs

av_interleaved_write_frame(): Unknown error
[flv @ 03E436E0] Failed to update header with correct duration.
[flv @ 03E436E0] Failed to update header with correct filesize.
frame=10466 fps= 61 q=-1.0 Lsize= 75519kB time=00:02:54.39 bitrate=3547.5kbits/s

[libx264 @ 021F54E0] frame I:90 Avg QP:24.90 size: 92321
[libx264 @ 021F54E0] frame P:4470 Avg QP:28.68 size: 11788
[libx264 @ 021F54E0] frame B:5867 Avg QP:29.36 size: 2136
[libx264 @ 021F54E0] consecutive B-frames: 7.3% 48.1% 14.4% 30.2%
[libx264 @ 021F54E0] mb I I16..4: 32.0% 0.0% 68.0%
[libx264 @ 021F54E0] mb P I16..4: 12.7% 0.0% 1.8% P16..4: 30.3% 11.1% 4.1% 0.0% 0.0% skip:40.0%
[libx264 @ 021F54E0] mb B I16..4: 1.1% 0.0% 0.1% B16..8: 11.5% 3.4% 0.3% direct: 2.4% skip:81.3% L0:38.7% L1:53.0% BI: 8.2%
[libx264 @ 021F54E0] coded y,uvDC,uvAC intra: 31.1% 19.9% 5.3% inter: 7.5% 2.7% 0.2%
[libx264 @ 021F54E0] i16 v,h,dc,p: 28% 40% 21% 11%
[libx264 @ 021F54E0] i4 v,h,dc,ddl,ddr,vr,hd,vl,hu: 20% 28% 22% 5% 5% 5% 7% 4% 6%
[libx264 @ 021F54E0] i8c dc,h,v,p: 69% 20% 10% 1%
[libx264 @ 021F54E0] Weighted P-Frames: Y:6.5% UV:0.3%
[libx264 @ 021F54E0] kb/s:3384.66
[dshow @ 021EF000] real-time buffer[vMix Video] too full (100% of size: 256000000)! frame dropped!
Last message repeated 1 times
Conversion failed!


Has only started happening recently with no hardware/software changes

Streaming to twitch.

Will give more info later.
sinc747  
#2 Posted : Wednesday, April 29, 2015 11:39:49 PM(UTC)
sinc747

Rank: Advanced Member

Groups: Registered
Joined: 8/2/2013(UTC)
Posts: 956
Man
United States
Location: Fairhope, Alabama USA

Thanks: 460 times
Was thanked: 184 time(s) in 152 post(s)
Curious what your streaming resolution, frame rate and bit rate were. Also what your uplink speed was.
gazreyn  
#3 Posted : Wednesday, May 6, 2015 9:15:22 AM(UTC)
gazreyn

Rank: Advanced Member

Groups: Registered
Joined: 4/18/2014(UTC)
Posts: 55
Location: Birmingham, United Kingdom

Was thanked: 9 time(s) in 6 post(s)
Streaming Resolution: 1280 x 720 @ 60 FPS
Bit Rate: 3,250
Upload Speed: 18Mbit
pinkimp  
#4 Posted : Wednesday, May 6, 2015 9:27:18 AM(UTC)
pinkimp

Rank: Member

Groups: Registered
Joined: 1/26/2014(UTC)
Posts: 27

Thanks: 1 times
Was thanked: 5 time(s) in 5 post(s)
What codecs are you using to stream with?
gazreyn  
#5 Posted : Wednesday, May 6, 2015 12:33:00 PM(UTC)
gazreyn

Rank: Advanced Member

Groups: Registered
Joined: 4/18/2014(UTC)
Posts: 55
Location: Birmingham, United Kingdom

Was thanked: 9 time(s) in 6 post(s)
Have tried both FLV and FFMPEG. I believe it may have been an internet issue when using a load balancer. I will try going direct through both lines to see if the issue still occurs.
GraceMaryville  
#6 Posted : Monday, September 7, 2015 10:49:02 AM(UTC)
GraceMaryville

Rank: Member

Groups: Registered
Joined: 9/7/2015(UTC)
Posts: 11
Location: Maryville, TN

We have recently begun having this problem with no changes in hardware or software. We are using sermon.net to stream to. The stream just randomly stops. The errors below are from the same service, but the stream drops several times. When this happens, the player on our website will not work, even if we stop and restart the stream.


frame=66939 fps= 30 q=26.0 size= 192959kB time=00:37:13.52 bitrate= 707.7kbits/s dup=0 drop=1
frame=66954 fps= 30 q=26.0 size= 193003kB time=00:37:14.01 bitrate= 707.7kbits/s dup=0 drop=1
frame=66969 fps= 30 q=26.0 size= 193040kB time=00:37:14.50 bitrate= 707.7kbits/s dup=0 drop=1
frame=66984 fps= 30 q=26.0 size= 193073kB time=00:37:15.03 bitrate= 707.7kbits/s dup=0 drop=1
frame=66999 fps= 30 q=26.0 size= 193119kB time=00:37:15.52 bitrate= 707.7kbits/s dup=0 drop=1
frame=67015 fps= 30 q=26.0 size= 193155kB time=00:37:16.04 bitrate= 707.6kbits/s dup=0 drop=1
frame=67030 fps= 30 q=25.0 size= 193192kB time=00:37:16.53 bitrate= 707.6kbits/s dup=0 drop=1
frame=67044 fps= 30 q=25.0 size= 193229kB time=00:37:17.04 bitrate= 707.6kbits/s dup=0 drop=1
frame=67060 fps= 30 q=26.0 size= 193284kB time=00:37:17.53 bitrate= 707.6kbits/s dup=0 drop=1
frame=67075 fps= 30 q=25.0 size= 193321kB time=00:37:18.04 bitrate= 707.6kbits/s dup=0 drop=1
frame=67090 fps= 30 q=25.0 size= 193364kB time=00:37:18.55 bitrate= 707.6kbits/s dup=0 drop=1
frame=67105 fps= 30 q=25.0 size= 193402kB time=00:37:19.04 bitrate= 707.6kbits/s dup=0 drop=1
frame=67120 fps= 30 q=25.0 size= 193457kB time=00:37:19.58 bitrate= 707.6kbits/s dup=0 drop=1
frame=67136 fps= 30 q=26.0 size= 193507kB time=00:37:20.07 bitrate= 707.7kbits/s dup=0 drop=1
frame=67151 fps= 30 q=26.0 size= 193559kB time=00:37:20.58 bitrate= 707.7kbits/s dup=0 drop=1
frame=67166 fps= 30 q=26.0 size= 193595kB time=00:37:21.09 bitrate= 707.7kbits/s dup=0 drop=1
frame=67181 fps= 30 q=26.0 size= 193642kB time=00:37:21.58 bitrate= 707.7kbits/s dup=0 drop=1
frame=67196 fps= 30 q=26.0 size= 193685kB time=00:37:22.10 bitrate= 707.7kbits/s dup=0 drop=1
frame=67211 fps= 30 q=26.0 size= 193728kB time=00:37:22.61 bitrate= 707.7kbits/s dup=0 drop=1
frame=67226 fps= 30 q=26.0 size= 193778kB time=00:37:23.12 bitrate= 707.7kbits/s dup=0 drop=1
frame=67242 fps= 30 q=26.0 size= 193842kB time=00:37:23.61 bitrate= 707.8kbits/s dup=0 drop=1
frame=67257 fps= 30 q=26.0 size= 193886kB time=00:37:24.10 bitrate= 707.8kbits/s dup=0 drop=1
frame=67272 fps= 30 q=26.0 size= 193931kB time=00:37:24.63 bitrate= 707.8kbits/s dup=0 drop=1
frame=67287 fps= 30 q=26.0 size= 193971kB time=00:37:25.12 bitrate= 707.8kbits/s dup=0 drop=1
av_interleaved_write_frame(): Unknown error
[flv @ 009DC8C0] Failed to update header with correct duration.
[flv @ 009DC8C0] Failed to update header with correct filesize.
frame=67291 fps= 30 q=-1.0 Lsize= 193997kB time=00:37:25.32 bitrate= 707.8kbits/s dup=0 drop=1
video:164628kB audio:26312kB subtitle:0kB other streams:0kB global headers:0kB muxing overhead: 1.600619%
[libx264 @ 009DD7C0] frame I:1185 Avg QP:17.18 size: 28752
[libx264 @ 009DD7C0] frame P:66106 Avg QP:18.66 size: 2035
[libx264 @ 009DD7C0] mb I I16..4: 52.2% 0.0% 47.8%
[libx264 @ 009DD7C0] mb P I16..4: 8.0% 0.0% 0.0% P16..4: 27.9% 3.1% 0.8% 0.0% 0.0% skip:60.2%
[libx264 @ 009DD7C0] coded y,uvDC,uvAC intra: 22.5% 30.3% 15.6% inter: 8.0% 13.9% 0.3%
[libx264 @ 009DD7C0] i16 v,h,dc,p: 53% 30% 12% 6%
[libx264 @ 009DD7C0] i4 v,h,dc,ddl,ddr,vr,hd,vl,hu: 21% 31% 11% 5% 6% 7% 7% 6% 7%
[libx264 @ 009DD7C0] i8c dc,h,v,p: 74% 14% 8% 3%
[libx264 @ 009DD7C0] kb/s:600.75
Conversion failed!



Log 2 end

[flv @ 008DCA40] Failed to update header with correct filesize.
frame=173839 fps= 30 q=-1.0 Lsize= 501046kB time=01:36:40.47 bitrate= 707.6kbits/s
video:425162kB audio:67975kB subtitle:0kB other streams:0kB global headers:0kB muxing overhead: 1.603940%
[libx264 @ 008DD840] frame I:3200 Avg QP:18.21 size: 23346
[libx264 @ 008DD840] frame P:170639 Avg QP:20.52 size: 2114
[libx264 @ 008DD840] mb I I16..4: 51.7% 0.0% 48.3%
[libx264 @ 008DD840] mb P I16..4: 6.8% 0.0% 0.0% P16..4: 29.2% 4.7% 1.3% 0.0% 0.0% skip:58.0%
[libx264 @ 008DD840] coded y,uvDC,uvAC intra: 20.9% 69.3% 28.9% inter: 7.3% 18.7% 0.2%
[libx264 @ 008DD840] i16 v,h,dc,p: 50% 24% 15% 12%
[libx264 @ 008DD840] i4 v,h,dc,ddl,ddr,vr,hd,vl,hu: 25% 28% 11% 5% 6% 7% 7% 6% 6%
[libx264 @ 008DD840] i8c dc,h,v,p: 53% 22% 21% 4%
[libx264 @ 008DD840] kb/s:600.46


Log 3 end

[flv @ 0196C800] Failed to update header with correct filesize.
frame=34268 fps= 30 q=-1.0 Lsize= 98902kB time=00:19:03.44 bitrate= 708.6kbits/s
video:83943kB audio:13399kB subtitle:0kB other streams:0kB global headers:0kB muxing overhead: 1.602081%
[libx264 @ 0196D700] frame I:572 Avg QP:18.59 size: 21175
[libx264 @ 0196D700] frame P:33696 Avg QP:20.79 size: 2192
[libx264 @ 0196D700] mb I I16..4: 57.9% 0.0% 42.1%
[libx264 @ 0196D700] mb P I16..4: 6.8% 0.0% 0.0% P16..4: 32.4% 5.7% 1.5% 0.0% 0.0% skip:53.7%
[libx264 @ 0196D700] coded y,uvDC,uvAC intra: 17.2% 80.6% 39.1% inter: 7.4% 23.3% 0.2%
[libx264 @ 0196D700] i16 v,h,dc,p: 54% 19% 12% 15%
[libx264 @ 0196D700] i4 v,h,dc,ddl,ddr,vr,hd,vl,hu: 22% 25% 13% 5% 6% 7% 8% 8% 6%
[libx264 @ 0196D700] i8c dc,h,v,p: 50% 23% 22% 5%
[libx264 @ 0196D700] kb/s:601.39

Any help would be greatly appreciated!

GraceMaryville  
#7 Posted : Saturday, May 20, 2017 5:59:33 AM(UTC)
GraceMaryville

Rank: Member

Groups: Registered
Joined: 9/7/2015(UTC)
Posts: 11
Location: Maryville, TN

I wanted to post an update about our situation. We have resolved the problem. It was caused by a bad internet switch, or possibly a bad ethernet cable. It boiled down to an intermittent internet connection. Once we connected directly to the router, the problem disappeared and we haven't had an issue since. Hope this helps!
Ajak  
#8 Posted : Wednesday, July 28, 2021 11:21:30 PM(UTC)
Ajak

Rank: Newbie

Groups: Registered
Joined: 6/9/2020(UTC)
Posts: 3
Australia
Location: FORRESTFIELD

Has anyone solve this error:
Stream end abruptly with failed to update the header

FFMPEG1.Exited
frame= 80 fps= 53 q=32.0 size= 503kB time=00:00:09.36 bitrate= 440.4kbits/s speed=6.22x
frame= 95 fps= 47 q=31.0 size= 567kB time=00:00:09.87 bitrate= 470.6kbits/s speed=4.92x
frame= 110 fps= 44 q=31.0 size= 642kB time=00:00:10.36 bitrate= 507.4kbits/s speed=4.13x
frame= 125 fps= 41 q=32.0 size= 786kB time=00:00:10.87 bitrate= 592.0kbits/s speed=3.61x
frame= 140 fps= 40 q=32.0 size= 854kB time=00:00:11.39 bitrate= 614.4kbits/s speed=3.24x
frame= 155 fps= 39 q=32.0 size= 930kB time=00:00:11.88 bitrate= 641.1kbits/s speed=2.95x
frame= 170 fps= 38 q=32.0 size= 1005kB time=00:00:12.39 bitrate= 664.7kbits/s speed=2.74x
[tls @ 048733e0] Writing encrypted data to socket failed
av_interleaved_write_frame(): I/O error
Last message repeated 1 times
[flv @ 04879920] Failed to update header with correct duration.
[flv @ 04879920] Failed to update header with correct filesize.
Error writing trailer of rtmps://live-api-s.facebook.com:443/rtmp/10158120764280846?s_bl=1&s_psm=1&s_sw=0&s_vt=api-s&a=AbzhpvvY162C6SIn: I/O error
frame= 184 fps= 37 q=33.0 Lsize= 1143kB time=00:00:12.86 bitrate= 728.1kbits/s speed=2.58x
video:1129kB audio:4kB subtitle:0kB other streams:0kB global headers:0kB muxing overhead: 0.960262%
[tls @ 048733e0] Writing encrypted data to socket failed
Last message repeated 1 times
[tls @ 048733e0] Failed to send close message
[aac @ 0487e840] Qavg: 65536.000
Conversion failed!
Users browsing this topic
Forum Jump  
You cannot post new topics in this forum.
You cannot reply to topics in this forum.
You cannot delete your posts in this forum.
You cannot edit your posts in this forum.
You cannot create polls in this forum.
You cannot vote in polls in this forum.